Super 8 (2011) 1080p BluRay x264 Dual Audio [Hindi DD5.1 - English DD5.1] - Msubs ~ Ranvijay

DOWNLOAD ( MAGNET LINK ) DOWNLOAD DOWNLOAD ANONYMOUS

Posted on May 17, 2018 in Movies » Misc

Size: 5.5 GB , Seeds: 1 , Peers: 1 ( Updated May 17, 2018 - Refresh )

* Download via Magnet Link , * To download files you need a Bittorrent Client , * How to download torrents from Bit Torrent Scene?

Scrape History ( seeds + peers )

Internal Files

Super 8 (2011) 1080p BluRay x264 Dual Audio [Hindi DD5.1 - English DD5.1] - Msubs ~ Ranvijay
Sample Super 8   2011) 1080p.mkv (36.8 MB

Super 8   2011) 1080p BluRay x264 Dual Audio [Hindi DD5.1 - English DD5.1] - Msubs ~ Ranvijay.mkv (5.5 GB

Hash Code

20cd3538cae34e169e0d4cff635e8fd25f4aa082

Description

SCREENSHOT
SCREENSHOT

Super 8 (2011) 1080p BluRay x264 Dual Audio [Hindi DD5.1 - English DD5.1] - Msubs ~ Ranvijay

Buy RDP Online
SCREENSHOT

Format : Matroska

Format version : Version 4 / Version 2

File size : 5.49 GiB

Duration : 1 h 51 min

Overall bit rate : 7 030 kb/s


Video

ID : 1

Format : AVC

Duration : 1 h 51 min

Bit rate : 6 105 kb/s

Width : 1 920 pixels

Height : 800 pixels

Display aspect ratio : 2.40:1

Frame rate mode : Constant

Frame rate : 23.976 (24000/1001) FPS

Stream size : 4.77 GiB (87%)

Title : ~Ranvijay~

Language : English

Default : Yes

Forced : No


Audio #1

ID : 2

Format : AC-3

Format/Info : Audio Coding 3

Codec ID : A_AC3

Duration : 1 h 51 min

Bit rate mode : Constant

Bit rate : 448 kb/s

Channel(s) : 6 channels

Channel positions : Front: L C R, Side: L R, LFE

Sampling rate : 48.0 kHz

Frame rate : 31.250 FPS (1536 SPF)

Bit depth : 16 bits

Compression mode : Lossy

Delay relative to video : 1 s 800 ms

Stream size : 358 MiB (6%)

Title : ~Ranvijay~

Language : Hindi

Service kind : Complete Main

Default : Yes

Forced : No


Audio #2

ID : 3

Format : AC-3

Format/Info : Audio Coding 3

Codec ID : A_AC3

Duration : 1 h 51 min

Bit rate mode : Constant

Bit rate : 448 kb/s

Channel(s) : 6 channels

Channel positions : Front: L C R, Side: L R, LFE

Sampling rate : 48.0 kHz

Frame rate : 31.250 FPS (1536 SPF)

Bit depth : 16 bits

Compression mode : Lossy

Stream size : 358 MiB (6%)

Title : ~Ranvijay~

Language : English

Service kind : Complete Main

Default : No

Forced : No


Text #1

ID : 4

Format : PGS

Muxing mode : zlib

Codec ID : S_HDMV/PGS

Codec ID/Info : Picture based subtitle format used on BDs/HD-DVDs

Duration : 1 h 50 min

Bit rate : 30.4 kb/s

Count of elements : 2960

Stream size : 24.1 MiB (0%)

Title : ~Ranvijay~

Language : Hindi

Default : Yes

Forced : No


Text #2

ID : 5

Format : PGS

Muxing mode : zlib

Codec ID : S_HDMV/PGS

Codec ID/Info : Picture based subtitle format used on BDs/HD-DVDs

Duration : 1 h 51 min

Bit rate : 62.3 kb/s

Count of elements : 3650

Stream size : 49.8 MiB (1%)

Title : ~Ranvijay~

Language : English

Default : No

Forced : No


Text #3

ID : 6

Format : UTF-8

Codec ID : S_TEXT/UTF8

Codec ID/Info : UTF-8 Plain Text

Duration : 1 h 48 min

Bit rate : 65 b/s

Count of elements : 1461

Stream size : 51.8 KiB (0%)

Title : ~Ranvijay~

Language : English

Default : No

Forced : No


Menu

00:00:00.000 : :Chapter 1

00:07:01.504 : :Chapter 2

00:11:33.275 : :Chapter 3

00:19:25.164 : :Chapter 4

00:26:43.518 : :Chapter 5

00:33:36.514 : :Chapter 6

00:40:30.511 : :Chapter 7

00:45:42.156 : :Chapter 8

00:51:57.113 : :Chapter 9

00:56:59.958 : :Chapter 10

01:02:24.365 : :Chapter 11

01:08:12.505 : :Chapter 12

01:13:30.906 : :Chapter 13

01:18:33.875 : :Chapter 14

01:25:31.334 : :Chapter 15

01:30:25.378 : :Chapter 16

01:38:20.352 : :Chapter 17

01:43:37.836 : :Chapter 18

01:51:48.493 : :Chapter 19

SCREENSHOT
SCREENSHOT
SCREENSHOT
SCREENSHOT
SCREENSHOT
SCREENSHOT
SCREENSHOT
SCREENSHOT
SCREENSHOT
SCREENSHOT

SCREENSHOT

Torrent location

https://www.1337x.to/torrent/3000193/Super-8-2011-1080p-BluRay-x264-Dual-Audio-Hindi-DD5-1-English-DD5-1-Msubs-Ranvijay/

Trackers

Refresh Leechers : Updated May 17, 2018

1. udp://9.rarbg.com:2710/announce

2. udp://tracker.opentrackr.org:1337/announce

3. udp://tracker.pirateparty.gr:6969/announce

4. udp://tracker.leechers-paradise.org:6969/announce

5. udp://tracker.coppersurfer.tk:6969/announce

6. udp://tracker.zer0day.to:1337/announce

Comments

You must log in to add a comment.

Embed Code

Sharing Widget

Related torrents

FILENAME SIZE SEEDS PEERS ADDED UPD
[i] Sanjays.Super.Team.2015.Bluray.1080p.DTS-HD-7.1.x264-Grym 929.3 MB 6 2 2 years 9 months
[i] Super Mario Bros 1993 1080p BluRay x264 - Dual Audio 7.98 GB 5 5 1 year 4 months
[i] Anchorman 2 - The Legend Continues (2013) Super-Sized (1080p Bluray x265 HEVC 10bit AAC 5.1 Tigole) [UTR] 3.47 GB 4 0 1 year 7 hours
[i] Super Troopers (2001) (1080p Bluray x265 HEVC 10bit AAC 5.1 Tigole) [UTR] 2.34 GB 3 1 1 year 1 month
[i] Super Dark Times 2017 iTA ENG Bluray 1080p x264-HDi mkv
posted by NickTnT in Movies - Drama
8.42 GB 3 0 4 months 1 month
[i] HK Forbidden Super Hero 2013 1080p BluRay x264 AAC - Ozlem 1.55 GB 2 0 3 years 10 months
[i] Barbie Super Principessa 2015 DTS ITA ENG 1080p BluRay x264-BLUWORLD mkv
posted by SPEEDY45 in Movies - Animation
6.04 GB 2 0 3 years 3 months
[i] Super.2010.Limited.BluRay.1080p.x264.DTS-LTT 5.72 GB 1 4 6 years 1 year
[i] Necessary Evil Super-Villains of DC Comics 2013 1080p BluRay x264 AC3 - Ozlem 1.64 GB 1 0 4 years 10 months
[i] Super.Mario.Bros.1993.1080p.BluRay.x264-7SinS 7.71 GB 1 1 3 years 6 months

Top Movies ( auto generated report )

FILENAME SIZE SEEDS PEERS ADDED UPD
[i] Death Wish (2018) [WEBRip] [1080p] [YTS AM] 1.7 GB 4055 2408 3 days 2 days
[i] Death Wish (2018) [WEBRip] [720p] [YTS AM] 905.39 MB 3484 2197 3 days 10 hours
[i] Gringo (2018) [WEBRip] [720p] [YTS AM] 940.05 MB 2754 2010 3 days 2 days
[i] Black Water (2018) [WEBRip] [720p] [YTS AM] 897.63 MB 2635 1460 3 days 2 days
[i] The Strangers Prey at Night (2018) [WEBRip] [720p] [YTS AM] 724.75 MB 2024 1073 3 days 2 days
[i] Gringo (2018) [WEBRip] [1080p] [YTS AM] 1.77 GB 1990 898 3 days 2 days
[i] Black Water (2018) [WEBRip] [1080p] [YTS AM] 1.68 GB 1828 905 3 days 2 days
[i] Death Wish (2018) [BluRay] [720p] [YTS AM] 908.79 MB 1692 714 1 day 4 hours
[i] How to Talk to Girls at Parties (2017) [WEBRip] [720p] [YTS AM] 869.28 MB 1574 800 3 days 2 days
[i] The Strangers Prey at Night (2018) [WEBRip] [1080p] [YTS AM] 1.37 GB 1529 695 3 days 2 days