Red Sparrow 2018 HC 720p HDRip Eng Audio KorSub With Sample LLG

Posted by LifeLongg •1002 on April 16, 2018 in Movies » Drama , verified torrent

Size: 1.38 GB , Seeds: 4 , Peers: 3 ( Updated June 19, 2018 - Refresh )

* Download via Magnet Link , * To download files you need a Bittorrent Client , * How to download torrents from Bit Torrent Scene?

Scrape History ( seeds + peers )

Internal Files

Red.Sparrow.2018.HC.720p.HDRip.Eng.Audio.KorSub.With.Sample.LLG
Sample.ts   5.54 MB
Red.Sparrow.2018.HC.720p.HDRip.Eng.Audio.KorSub.With.Sample.LLG.mp4   1.37 GB

Hash Code

d003d5a46c770768522d6988b4c6ead574163e49

Description

SCREENSHOT

SCREENSHOT

******************************Thumbnail:**********************

SCREENSHOT

******************************Screenshots:********************

Screenshot 1

Screenshot 2

Screenshot 3

Screenshot 4

Screenshot 5

Screenshot 6

Screenshot 7

Screenshot 8

Screenshot 9

Screenshot 0

**************************************************************

Complete name : Red.Sparrow.2018.HC.720p.HDRip.Eng.Audio.KorSub.With.Sample.LLG.mp4
Format : MPEG-4
Format profile : Base Media
Codec ID : isom (isom/iso2/avc1/mp41)
File size : 1.37 GiB
Duration : 2 h 15 min
Overall bit rate : 1 445 kb/s
Writing application : Lavf57.56.101

Video
ID : 1
Format : AVC
Format/Info : Advanced Video Codec
Format profile : High@L4
Format settings : CABAC / 4 Ref Frames
Format settings, CABAC : Yes
Format settings, RefFrames : 4 frames
Codec ID : avc1
Codec ID/Info : Advanced Video Coding
Duration : 2 h 15 min
Bit rate : 1 200 kb/s
Width : 1 904 pixels
Height : 800 pixels
Display aspect ratio : 2.40:1
Frame rate mode : Constant
Frame rate : 29.970 (29970/1000) FPS
Color space : YUV
Chroma subsampling : 4:2:0
Bit depth : 8 bits
Scan type : Progressive
Bits/(Pixel*Frame) : 0.026
Stream size : 1.12 GiB (82%)

Audio
ID : 2
Format : AC-3
Format/Info : Audio Coding 3
Codec ID : ac-3
Duration : 2 h 15 min
Bit rate mode : Constant
Bit rate : 256 kb/s
Channel(s) : 2 channels
Channel positions : Front: L R
Sampling rate : 48.0 kHz
Frame rate : 31.250 FPS (1536 SPF)
Bit depth : 16 bits
Compression mode : Lossy
Stream size : 249 MiB (18%)
Language : English
Service kind : Complete Main
Default : Yes
Alternate group : 1

Trackers

Refresh Leechers : Updated June 19, 2018

1. udp://tracker.openbittorrent.com:80/announce

2. udp://tracker.opentrackr.org:1337/announce

Comments

You must log in to add a comment.

Embed Code

Sharing Widget

Related torrents

FILENAME SIZE SEEDS PEERS ADDED UPD
[i] Red Sparrow (2018) [BluRay] [720p] [YTS AM] 1.17 GB 3076 626 2 months 1 week
[i] Red Sparrow (2018) [BluRay] [1080p] [YTS AM] 2.24 GB 2085 352 2 months 1 week
[i] Red.Sparrow.2018.HC.HDRip.XviD.AC3-EVO[EtMovies] 1.31 GB 1479 74 3 months 1 month
[i] Red Sparrow (2018) Jennifer Lawrence.720p.H264.italian.English.Ac3-5.1.sub.ita.eng.MIRCrew
posted by robbyrs3 in Movies - Thriller
2.73 GB 131 25 2 months 5 days
[i] downloadhub in Red Sparrow (2018) 720p BluRay x264 [Dual-Audio][Hindi 5 1 - English 5 1] ESubs - Downloadhub
posted by downloadhub in Movies - Drama
1.31 GB 67 56 2 months 6 days
[i] Red Sparrow 2018 DTS ITA ENG 1080p BluRay x264-BLUWORLD mkv
posted by SPEEDY4572 in Movies - Thriller
12.49 GB 40 19 2 months 5 days
[i] Red Sparrow 2018 720p BRRip x264 AAC-ETRG
posted by juggs in Movies - Thriller
986.65 MB 36 11 2 months 1 month
[i] Red Sparrow 2018 Bluray H264 Ita Eng Ac3 5 1 Subs RoomCrew mkv
posted by NickTnT in Series - Misc
2.02 GB 35 5 2 months 5 days
[i] Red Sparrow 2018 iTALiAN BRRip XviD BLUWORLD
posted by SPEEDY4572 in Movies - Thriller
1.71 GB 26 4 2 months 5 days
[i] Red Sparrow 2018 BRRip XViD AC3-ETRG
posted by juggs in Movies - Thriller
1.42 GB 24 11 2 months 1 week

Top Movies ( auto generated report )

FILENAME SIZE SEEDS PEERS ADDED UPD
[i] Tully (2018) [BluRay] [720p] [YTS AM] 804.81 MB 1836 1717 21 hours 19 hours
[i] Robin Williams Come Inside My Mind (2018) [WEBRip] [1080p] [YTS AM] 1.85 GB 1116 300 22 hours 20 hours
[i] Tully (2018) [BluRay] [1080p] [YTS AM] 1.52 GB 1356 1168 21 hours 19 hours
[i] Godzilla City on the Edge of Battle (2018) [WEBRip] [720p] [YTS AM] 862.3 MB 1123 404 22 hours 19 hours
[i] Tango One (2018) [BluRay] [720p] [YTS AM] 967.28 MB 1073 689 4 days 3 days
[i] Jurassic World Fallen Kingdom 2018 NEW HD-TS XViD AC3 ETRG 1.35 GB 1065 832 4 days 3 days
[i] Robin Williams Come Inside My Mind (2018) [WEBRip] [720p] [YTS AM] 973.96 MB 1020 260 22 hours 20 hours
[i] Ghost Stories (2017) [WEBRip] [720p] [YTS AM] 829.59 MB 966 356 22 hours 19 hours
[i] Ghost Stories (2017) [WEBRip] [1080p] [YTS AM] 1.56 GB 815 215 22 hours 19 hours
[i] Godzilla City on the Edge of Battle (2018) [WEBRip] [1080p] [YTS AM] 1.62 GB 825 274 22 hours 19 hours