Your IP Address is . Location is Your ISP and Government can track your torrent activity! Hide your IP with a VPN!

Rampage.2018.Movies.720p.HD.TS.x264.AAC.Clean.AC3.Eng.Audio.LLG

DOWNLOAD TORRENT DOWNLOAD PROTECT YOUR PRIVACY

Posted by LifeLongg •583 on April 16, 2018 in Movies » Action , verified torrent

Size: 962.05 MB , Seeds: 227 , Peers: 203 ( Updated April 17, 2018 - Refresh )

* Download via Magnet Link , * To download files you need a Bittorrent Client , * How to download torrents from Bit Torrent Scene?

Scrape History ( seeds + peers )

Internal Files

Rampage.2018.Movies.HD.TS.x264.AAC.Clean.AC3.Eng.Audio.LLG
Sample.ts   12.26 MB
Rampage.2018.Movies.HD.TS.x264.AAC.Clean.AC3.Eng.Audio.LLG.mp4   949.78 MB

Hash Code

fdb991faf254908c5177145bcb18c36fcd057806

Description

SCREENSHOT

SCREENSHOT

******************************Thumbnail:**********************

SCREENSHOT

******************************Screenshots:********************

Screenshot 1

Screenshot 2

Screenshot 3

Screenshot 4

Screenshot 5

Screenshot 6

Screenshot 7

Screenshot 8

Screenshot 9

Screenshot 0

**************************************************************

Complete name : Rampage.2018.Movies.HD.TS.x264.AAC.Clean.AC3.Eng.Audio.LLG.mp4
Format : MPEG-4
Format profile : Base Media
Codec ID : isom (isom/iso2/avc1/mp41)
File size : 950 MiB
Duration : 1 h 39 min
Overall bit rate : 1 333 kb/s
Writing application : Lavf57.56.101

Video
ID : 1
Format : AVC
Format/Info : Advanced Video Codec
Format profile : High@L3.1
Format settings : CABAC / 4 Ref Frames
Format settings, CABAC : Yes
Format settings, RefFrames : 4 frames
Codec ID : avc1
Codec ID/Info : Advanced Video Coding
Duration : 1 h 39 min
Bit rate : 1 200 kb/s
Width : 1 280 pixels
Height : 720 pixels
Display aspect ratio : 16:9
Frame rate mode : Constant
Frame rate : 29.970 (29970/1000) FPS
Color space : YUV
Chroma subsampling : 4:2:0
Bit depth : 8 bits
Scan type : Progressive
Bits/(Pixel*Frame) : 0.043
Stream size : 856 MiB (90%)

Audio
ID : 2
Format : AC-3
Format/Info : Audio Coding 3
Codec ID : ac-3
Duration : 1 h 39 min
Bit rate mode : Constant
Bit rate : 128 kb/s
Channel(s) : 2 channels
Channel positions : Front: L R
Sampling rate : 48.0 kHz
Frame rate : 31.250 FPS (1536 SPF)
Bit depth : 16 bits
Compression mode : Lossy
Stream size : 91.2 MiB (10%)
Language : English
Service kind : Complete Main
Default : Yes
Alternate group : 1

Trackers

Refresh Leechers : Updated April 17, 2018

1. udp://tracker.openbittorrent.com:80/announce

2. udp://tracker.opentrackr.org:1337/announce

3. UDP://TRACKER.LEECHERS-PARADISE.ORG:6969/ANNOUNCE

Comments

You must log in to add a comment.

Embed Code

Sharing Widget

Top Movies ( auto generated report )

FILENAME SIZE SEEDS PEERS ADDED UPD
[i] Tremors.A.Cold.Day.in.Hell.2018.DVDRip.XviD.AC3-EVO 1.43 GB 90 100 14 hours 11 hours
[i] downloadhub in Sonu Ke Titu Ki Sweety (2018) Hindi 720p HDRip x264 AAC ESubs - Downloadhub 1.06 GB 87 299 14 hours 11 hours
[i] Tremors A Cold Day in Hell.2018.DVDRip.XviD.AC3-EVO 1.43 GB 78 159 16 hours 13 hours
[i] Seven.Years.of.Night.2018.720p.HDRip.Ganool 900.3 MB 70 83 16 hours 10 hours
[i] Bleeding Steel.2017.HDRip.XviD.AC3-EVO 1.38 GB 90 108 8 hours 6 hours
[i] Early.Man.2018.READNFO.HDRip.XviD.AC3-iFT[N1C] 1.3 GB 36 42 16 hours 10 hours
[i] Bleeding.Steel.2017.HDRip.AC3.X264-CMRG[EtMovies] 1.58 GB 44 40 10 hours 7 hours
[i] Bleeding Steel.2017.HDRip.XviD.AC3-EVO[EtMovies] 1.38 GB 32 24 12 hours 10 hours
[i] The.Debt.Collector.2018.BDRip.x264-RUSTED[N1C] 643.2 MB 31 9 18 hours 13 hours
[i] Sonu Ke Titu Ki Sweety (2018) AMZN HDRip 720p Hindi H 264 ACC - LatestHDMovies mkv 1.3 GB 30 327 10 hours 8 hours