Oceans 8 2018 720p HD-TS X264 MP3 LLG

Posted by LifeLongg •1236 on June 13, 2018 in Movies » Action , verified torrent

Size: 1.21 GB , Seeds: 10 , Peers: 7 ( Updated August 16, 2018 )

* Download via Magnet Link , * To download files you need a Bittorrent Client , * How to download torrents from Bit Torrent Scene?

Scrape History ( seeds + peers )

Internal Files

Oceans.8.2018.720p.HD-TS.X264.MP3.LLG
Sample.ts   20.59 MB
Oceans.8.2018.720p.HD-TS.X264.MP3.LLG.mp4   1.19 GB

Hash Code

716158a96938fdbc65623dc80604f29757085282

Description

******************************Thumbnail:**********************

SCREENSHOT

******************************Screenshots:********************

Screenshot 1

Screenshot 2

Screenshot 3

Screenshot 4

Screenshot 5

Screenshot 6

Screenshot 7

Screenshot 8

Screenshot 9

Screenshot 0

**************************************************************

Complete name : Oceans.8.2018.720p.HD-TS.X264.MP3.LLG.mp4
Format : MPEG-4
Format profile : Base Media
Codec ID : isom (isom/iso2/avc1/mp41)
File size : 1.19 GiB
Duration : 1 h 43 min
Overall bit rate : 1 637 kb/s
Writing application : Lavf57.56.101

Video
ID : 1
Format : AVC
Format/Info : Advanced Video Codec
Format profile : High@L3.1
Format settings : CABAC / 4 Ref Frames
Format settings, CABAC : Yes
Format settings, RefFrames : 4 frames
Codec ID : avc1
Codec ID/Info : Advanced Video Coding
Duration : 1 h 43 min
Bit rate : 1 500 kb/s
Width : 1 280 pixels
Height : 536 pixels
Display aspect ratio : 2.40:1
Frame rate mode : Constant
Frame rate : 23.976 (23976/1000) FPS
Color space : YUV
Chroma subsampling : 4:2:0
Bit depth : 8 bits
Scan type : Progressive
Bits/(Pixel*Frame) : 0.091
Stream size : 1.09 GiB (92%)


Audio
ID : 2
Format : MPEG Audio
Format version : Version 1
Format profile : Layer 3
Format settings : Joint stereo / MS Stereo
Codec ID : mp4a-6B
Duration : 1 h 43 min
Bit rate mode : Constant
Bit rate : 128 kb/s
Channel(s) : 2 channels
Sampling rate : 44.1 kHz
Compression mode : Lossy
Stream size : 94.9 MiB (8%)
Writing library : LAME3.99.5
Default : Yes
Alternate group : 1

Trackers

Refresh Leechers : Updated August 16, 2018

1. udp://tracker.openbittorrent.com:80/announce

2. udp://tracker.opentrackr.org:1337/announce

Comments

You must log in to add a comment.

Embed Code

Sharing Widget

Related torrents

FILENAME SIZE SEEDS PEERS ADDED UPD
[i] Oceans 8 2018 720p HD-TS X264 ENG LLG
posted by LifeLongg in Movies - Action
1.02 GB 25 8 2 months 4 weeks
[i] Oceans 8 2018 720p HD-TS x264 AAC [MW]
posted by moviefreak in Movies - Action
985.67 MB 18 12 2 months 21 hours
[i] Oceans 8 (2018 ) 720p HD-TS X264-CPG mkv [MOVCR] mp4
posted by Tamilgun in Movies - Action
910.04 MB 17 8 2 months 1 day
[i] Oceans 8 2018 720p HDTS X264 CPG 2.3 GB 12 37 2 months 2 months
[i] Oceans 8 2018 720p HD-TS X264-CPG 2.3 GB 0 0 2 months 2 months
[i] Oceans 8 2018 720p TS HEVC x265-RMTeam 539.8 MB 0 0 2 months 2 months

Top Movies ( auto generated report )

FILENAME SIZE SEEDS PEERS ADDED UPD
[i] The Equalizer 2 2018 HDTS XViD AC3-ETRG 1.28 GB 847 406 3 days 1 day
[i] Mission Impossible Fallout 2018 NEW HDCAM XViD AC3 ETRG 1.47 GB 300 272 2 days 1 day
[i] downloadhub in Sketch (2018) 720p UNCUT HDRip x264 [Dual-Audio][Hindi (Cleaned) - Tamil] ESubs - Downloadhub 1.15 GB 282 380 2 days 1 day
[i] Wind River - I segreti di Wind River (2017).720p.H264.italian.english.Ac3-5.1.sub.ita-MIRCrew 2.05 GB 263 138 3 days 2 days
[i] Satyameva Jayate 2018 Hindi 720p PRE-DVDRip x264 AAC { TaRa } mkv 1.01 GB 256 166 1 day 7 hours
[i] Slender Man 2018 720p HDCAM x264 [MW] 1020.31 MB 206 86 4 days 3 days
[i] downloadhub in Gold (2018) Hindi 720p Pre-DVDRip x264 AAC - Downloadhub 900.21 MB 183 54 1 day 12 hours
[i] The Meg 2018 720p HDTC x264 Dual Audio [Hindi - English] [MW] 1.04 GB 173 124 2 days 1 day
[i] downloadhub in Satyameva Jayate (2018) Hindi 720p Pre-DVDRip x264 AAC - Downloadhub 1.01 GB 165 83 1 day 13 hours
[i] Garage Sale Mysteries (The Mask Murder) 2018 720p HDTV 992.4 MB 155 35 3 days 2 days