Missing 2018 Pre DVD Hindi GOPISAHI

Posted by gopisahi •865 on April 16, 2018 in Movies » Drama , verified torrent

Size: 276.62 MB , Seeds: 1 , Peers: 0 ( Updated June 19, 2018 - Refresh )

* Download via Magnet Link , * To download files you need a Bittorrent Client , * How to download torrents from Bit Torrent Scene?

Scrape History ( seeds + peers )

Internal Files

Missing 2018 Pre DVD Hindi GOPISAHI.mkv
Missing 2018 Pre DVD Hindi GOPISAHI.mkv   276.62 MB

Hash Code

1b0920bc9d3c136f20bca7359246c50671c9b0ab

Description

SCREENSHOT
Format : Matroska
Format version : Version 4 / Version 2
File size : 277 MiB
Duration : 1 h 47 min
Overall bit rate : 359 kb/s
Movie name : Missing 2018 GOPISAHI

Video
Format : AVC
Codec ID : V_MPEG4/ISO/AVC
Duration : 1 h 47 min
Bit rate : 300 kb/s
Width : 622 pixels
Height : 272 pixels
Display aspect ratio : 2.25:1
Frame rate mode : Constant
Frame rate : 25.000 FPS
Color space : YUV
Chroma subsampling : 4:2:0
Bit depth : 8 bits
Scan type : Progressive
Bits/(Pixel*Frame) : 0.071
Stream size : 231 MiB (84%)
Title : GOPISAHI
Writing library : x264 core 155 r2893 b00bcaf

Audio
Format : AAC
Duration : 1 h 47 min
Bit rate : 56.5 kb/s
Channel(s) : 2 channels
Channel positions : Front: L R
Sampling rate : 44.1 kHz
Frame rate : 43.066 FPS (1024 SPF)
Compression mode : Lossy
Stream size : 43.6 MiB (16%)
Title : GOPISAHI
Language : Hindi
SCREENSHOT
SCREENSHOT
SCREENSHOT
SCREENSHOT
SCREENSHOT

Trackers

Refresh Leechers : Updated June 19, 2018

1. udp://9.rarbg.com:2740/announce

2. udp://9.rarbg.to:2800/announce

3. udp://inferno.demonoid.pw:3391/announce

4. udp://tracker.leechers-paradise.org:6969/announce

5. udp://tracker.coppersurfer.tk:80/announce

6. udp://tracker.coppersurfer.tk:6969/announce

7. udp://tracker.opentrackr.org:1337/announce

8. udp://p4p.arenabg.com:1337/announce

9. UDP://EDDIE4.NL:6969/ANNOUNCE

10. udp://tracker.pirateparty.gr:6969/announce

11. udp://tracker.tiny-vps.com:6969/announce

12. udp://public.popcorn-tracker.org:6969/announce

13. udp://tracker.torrent.eu.org:451/announce

14. https://jiotorrents.net/announce.php?pk=e4f8706d012352e15d86ef04d6a7c6d0f5588489

Comments

You must log in to add a comment.

Embed Code

Sharing Widget

Related torrents

FILENAME SIZE SEEDS PEERS ADDED UPD
[i] downloadhub in Missing (2018) Hindi 720p HDRip x264 AAC ESubs - Downloadhub
posted by downloadhub in Movies - Drama
943.1 MB 56 5 1 month 1 week
[i] Missing 2018 Hindi 1080p WEB-DL x264 ESub [MW]
posted by moviefreak in Movies - Thriller
1.66 GB 43 6 1 month 1 week
[i] Missing.2018.1080p.WEB-DL.H264.AAC2.0.ESub - DTOne 4.54 GB 31 3 1 month 1 week
[i] Missing.(2018).720p.Web.Rip.x264.AC3.ESub-DTOne.Exclusive 2.52 GB 19 15 1 month 1 week
[i] Missing 2018 Hindi NEW 720p PreDVDRip x264 [MW]
posted by moviefreak in Movies - Thriller
1.01 GB 13 10 3 months 1 month
[i] Missing 2018 Hindi 720p PreDVDRip x264 AAC [MW]
posted by moviefreak in Movies - Thriller
928.17 MB 8 1 3 months 1 month
[i] Missing 2018 Hindi 720p WEB-DL x264 ESub [MW]
posted by moviefreak in Movies - Thriller
875.62 MB 8 0 1 month 1 week
[i] Missing (2018) Hindi PRE DVDx264 700MB TEAM TR 702.3 MB 6 6 3 months 1 month
[i] Missing.(2018) Web.Rip.x264.AC3.ESub-DTOne.Exclusive 1.47 GB 4 2 1 month 1 week
[i] Missing 2018 720p WEB-HD x264 HINDI AAC LLG
posted by LifeLongg in Movies - Drama
1.31 GB 2 1 1 month 1 week

Top Movies ( auto generated report )

FILENAME SIZE SEEDS PEERS ADDED UPD
[i] Tully (2018) [BluRay] [720p] [YTS AM] 804.81 MB 1836 1717 22 hours 20 hours
[i] Robin Williams Come Inside My Mind (2018) [WEBRip] [1080p] [YTS AM] 1.85 GB 1116 300 22 hours 20 hours
[i] Tully (2018) [BluRay] [1080p] [YTS AM] 1.52 GB 1356 1168 22 hours 20 hours
[i] Godzilla City on the Edge of Battle (2018) [WEBRip] [720p] [YTS AM] 862.3 MB 1123 404 22 hours 20 hours
[i] Tango One (2018) [BluRay] [720p] [YTS AM] 967.28 MB 1073 689 4 days 3 days
[i] Jurassic World Fallen Kingdom 2018 NEW HD-TS XViD AC3 ETRG 1.35 GB 1065 832 4 days 3 days
[i] Robin Williams Come Inside My Mind (2018) [WEBRip] [720p] [YTS AM] 973.96 MB 1020 260 22 hours 20 hours
[i] Ghost Stories (2017) [WEBRip] [720p] [YTS AM] 829.59 MB 966 356 22 hours 20 hours
[i] Ghost Stories (2017) [WEBRip] [1080p] [YTS AM] 1.56 GB 815 215 22 hours 20 hours
[i] Godzilla City on the Edge of Battle (2018) [WEBRip] [1080p] [YTS AM] 1.62 GB 825 274 22 hours 20 hours