Goodbye Christopher Robin (2017) 720p Bluray x265 HEVC Dual Audio [Hindi - English] DD5.1 - Msubs ~ Ranvijay

Posted on January 13, 2018 in Movies » Misc

Size: 904.3 MB , Seeds: 4 , Peers: 1 ( Updated July 1, 2018 - Refresh )

* Download via Magnet Link , * To download files you need a Bittorrent Client , * How to download torrents from Bit Torrent Scene?

Scrape History ( seeds + peers )

Internal Files

Goodbye Christopher Robin (2017) 720p Bluray x265 HEVC Dual Audio [Hindi - English] DD5.1 - Msubs ~ Ranvijay.mkv
Goodbye Christopher Robin (2017) 720p Bluray x265 HEVC Dual Audio [Hindi - English] DD5.1 - Msubs ~ Ranvijay.mkv   903.56 MB

Hash Code

18cbd804308f594a3d5aa3078c04989dada149e6

Description

SCREENSHOT
SCREENSHOT
SCREENSHOT
SCREENSHOT

Goodbye Christopher Robin (2017) 720p Bluray x265 HEVC Dual Audio [Hindi - English] DD5.1 - Msubs ~ Ranvijay

Format                                   : Matroska

Format version                           : Version 4 / Version 2

File size                                : 904 MiB

Duration                                 : 1 h 47 min

Overall bit rate                         : 1 181 kb/s

Movie name                               : Goodbye Christopher Robin (2017) 720p Bluray x265 HEVC Dual Audio [Hindi - English] DD5.1 - Msubs ~ Ranvijay


Video

ID                                       : 1

Format                                   : HEVC

Duration                                 : 1 h 47 min

Bit rate                                 : 752 kb/s

Width                                    : 1 280 pixels

Height                                   : 688 pixels

Display aspect ratio                     : 1.85:1

Frame rate mode                          : Constant

Frame rate                               : 23.976 (24000/1001) FPS

Stream size                              : 575 MiB (64%)

Title                                    : ~Ranvijay~

Default                                  : Yes

Forced                                   : N


Audio #1

ID                                       : 3

Format                                   : AAC

Format/Info                              : Advanced Audio Codec

Format profile                           : HE-AAC / LC

Format settings                          : Explicit

Codec ID                                 : A_AAC-2

Duration                                 : 1 h 47 min

Bit rate                                 : 192 kb/s

Channel(s)                               : 6 channels

Channel positions                        : Front: L C R, Side: L R, LFE

Sampling rate                            : 48.0 kHz / 24.0 kHz

Frame rate                               : 23.438 FPS (1024 SPF)

Compression mode                         : Lossy

Delay relative to video                  : 31 ms

Stream size                              : 147 MiB (16%)

Title                                    : ~Ranvijay~

Language                                 : English

Default                                  : No

Forced                                   : No


Audio #2

ID                                       : 5

Format                                   : AC-3

Format/Info                              : Audio Coding 3

Codec ID                                 : A_AC3

Duration                                 : 1 h 47 min

Bit rate mode                            : Constant

Bit rate                                 : 224 kb/s

Channel(s)                               : 6 channels

Channel positions                        : Front: L C R, Side: L R, LFE

Sampling rate                            : 48.0 kHz

Frame rate                               : 31.250 FPS (1536 SPF)

Bit depth                                : 16 bits

Compression mode                         : Lossy

Stream size                              : 171 MiB (19%)

Title                                    : ~Ranvijay~

Language                                 : Hindi

Service kind                             : Complete Main

Default                                  : Yes

Forced                                   : No


Text #1

ID                                       : 2

Format                                   : UTF-8

Codec ID                                 : S_TEXT/UTF8

Codec ID/Info                            : UTF-8 Plain Text

Duration                                 : 1 h 40 min

Bit rate                                 : 63 b/s

Count of elements                        : 1670

Stream size                              : 46.9 KiB (0%)

Title                                    : ~Ranvijay~

Language                                 : English

Default                                  : No

Forced                                   : No


Text #2

ID                                       : 4

Format                                   : PGS

Muxing mode                              : zlib

Codec ID                                 : S_HDMV/PGS

Codec ID/Info                            : Picture based subtitle format used on BDs/HD-DVDs

Duration                                 : 1 h 45 min

Bit rate                                 : 31.5 kb/s

Count of elements                        : 2852

Stream size                              : 23.8 MiB (3%)

Title                                    : ~Ranvijay~

Language                                 : Hindi

Default                                  : Yes

Forced                                   : No


Menu

00:00:00.000                             : :00:00:00.000

00:04:03.952                             : :00:04:03.952

00:07:01.171                             : :00:07:01.171

00:10:32.632                             : :00:10:32.632

00:13:40.528                             : :00:13:40.528

00:16:48.591                             : :00:16:48.591

00:20:43.409                             : :00:20:43.409

00:25:44.793                             : :00:25:44.793

00:30:36.752                             : :00:30:36.752

00:35:25.582                             : :00:35:25.582

00:40:50.740                             : :00:40:50.740

00:48:22.108                             : :00:48:22.108

00:52:32.733                             : :00:52:32.733

00:57:53.595                             : :00:57:53.595

01:03:35.812                             : :01:03:35.812

01:07:38.513                             : :01:07:38.513

01:12:43.860                             : :01:12:43.859

01:18:55.731                             : :01:18:55.731

01:21:45.609                             : :01:21:45.609

01:25:16.653                             : :01:25:16.653

01:29:10.428                             : :01:29:10.428

01:32:27.917                             : :01:32:27.917

01:35:55.917                             : :01:35:55.917

01:41:03.266                             : :01:41:03.266

SCREENSHOT
SCREENSHOT
SCREENSHOT
SCREENSHOT
SCREENSHOT
SCREENSHOT
SCREENSHOT

Torrent location

https://www.1337x.to/torrent/2728454/Goodbye-Christopher-Robin-2017-720p-Bluray-x265-HEVC-Dual-Audio-Hindi-English-DD5-1-Msubs-Ranvijay/

Trackers

Refresh Leechers : Updated July 1, 2018

1. http://bigfoot1942.sektori.org:6969/announce

2. http://tracker2.wasabii.com.tw:6969/announce

3. http://tracker.opentrackr.org/announce

4. http://announce.torrentsmd.com:6969/announce

5. http://tracker.trackerfix.com/announce

6. http://tracker.opentrackr.org/announce

7. udp://explodie.org:6969/announce

8. udp://mgtracker.org:6969/announce

9. udp://asnet.pw:2710/announce

10. udp://tracker.mgtracker.org:2710/announce

11. udp://tracker4.piratux.com:6969/announce

12. udp://tracker.trackerfix.com:80/announce

13. udp://tracker.pomf.se:80/announce

14. udp://tracker.x4w.co:6969/announce

15. udp://castradio.net:6969/announce

16. udp://ipv4.tracker.harry.lu:80/announce

17. udp://tracker.mg64.net:6881/announce

18. udp://tracker.sktorrent.net:6969/announce

19. udp://tracker.blackunicorn.xyz:6969/announce

20. udp://tracker.internetwarriors.net:1337/announce

21. udp://public.popcorn-tracker.org:6969/announce

22. udp://glotorrents.pw:6969/announce

23. udp://tracker.vanitycore.co:6969/announce

24. udp://tracker.trackerfix.com:80/announce

25. udp://p4p.arenabg.ch:1337/announce

26. udp://9.rarbg.me:2710/announce

27. udp://tracker.zer0day.to:1337/announce

28. udp://tracker.opentrackr.org:1337/announce

29. udp://tracker.pirateparty.gr:6969/announce

30. udp://9.rarbg.to:2710/announce

31. udp://eddie4.nl:6969/announce

32. udp://tracker.coppersurfer.tk:6969/announce

33. udp://tracker.leechers-paradise.org:6969/announce

34. http://glotorrents.pw/announce

35. UDP://TRACKER.LEECHERS-PARADISE.ORG:6969/announce

36. UDP://TRACKER.COPPERSURFER.TK:6969/announce

37. UDP://TRACKER.OPENTRACKR.ORG:1337/announce

38. UDP://TRACKER.ZER0DAY.TO:1337/announce

39. UDP://EDDIE4.NL:6969/announce

40. udp://tracker.leechers-paradise.org:6969/announce

41. udp://tracker.coppersurfer.tk:6969/announce

42. udp://eddie4.nl:6969/announce

43. udp://9.rarbg.to:2790/announce

44. udp://tracker.pirateparty.gr:6969/announce

45. udp://tracker.opentrackr.org:1337/announce

46. udp://tracker.zer0day.to:1337/announce

47. udp://9.rarbg.me:2790/announce

48. udp://p4p.arenabg.ch:1337/announce

49. udp://tracker.vanitycore.co:6969/announce

50. udp://public.popcorn-tracker.org:6969/announce

51. udp://tracker.internetwarriors.net:1337/announce

52. udp://tracker.blackunicorn.xyz:6969/announce

53. udp://tracker.sktorrent.net:6969/announce

54. udp://tracker.mg64.net:6881/announce

55. udp://ipv4.tracker.harry.lu:80/announce

56. udp://castradio.net:6969/announce

57. udp://tracker.x4w.co:6969/announce

58. udp://tracker.pomf.se:80/announce

59. udp://tracker4.piratux.com:6969/announce

60. udp://tracker.mgtracker.org:2710/announce

61. udp://asnet.pw:2710/announce

62. udp://mgtracker.org:6969/announce

63. udp://explodie.org:6969/announce

64. udp://tracker.trackerfix.com:80/announce

65. http://announce.torrentsmd.com:6969/announce

66. udp://tracker.opentrackr.org:80/announce

67. http://tracker2.wasabii.com.tw:6969/announce

68. http://bigfoot1942.sektori.org:6969/announce

Comments

You must log in to add a comment.

Embed Code

Sharing Widget

Related torrents

FILENAME SIZE SEEDS PEERS ADDED UPD
[i] Goodbye Christopher Robin (2017) [720p] [YTS AG] 787.65 MB 84 10 6 months 2 weeks
[i] Goodbye Christopher Robin - Vi presento Christopher Robin (2017).720p.H264.italian.english.Ac3-5.1.sub.ita.eng.MIRCrew
posted by robbyrs3 in Movies - Drama
1.96 GB 23 4 4 months 1 month
[i] Goodbye Christopher Robin 2017 720p WEB-DL x264
posted by moviefreak in Movies - Family
834.86 MB 7 3 6 months 4 weeks
[i] Goodbye Christopher Robin 2017 720p BluRay Hindi English DD 5.1 - LOKI - M2Tv 1.14 GB 5 4 6 months 2 weeks
[i] Goodbye Christopher Robin 2017 720p Esub BlyRay 5 1 Dual Audio English Hindi GOPISAHI
posted by gopisahi in Movies - Adventure
511.1 MB 4 0 6 months 2 weeks
[i] Goodbye Christopher Robin.2017.720p.WEB-DL.H264.AC3-EVO[EtHD] 3.31 GB 3 3 6 months 4 weeks
[i] Goodbye Christopher Robin 2017 720p BRRip AAC ESub LLG
posted by LifeLongg in Movies - Family
970.17 MB 3 0 6 months 2 weeks
[i] Goodbye Christopher Robin.2017.720p.WEB-DL.H264.AC3-EVO 3.3 GB 0 3 6 months 4 weeks

Top Movies ( auto generated report )

FILENAME SIZE SEEDS PEERS ADDED UPD
[i] Tango One (2018) [BluRay] [720p] [YTS AM] 967.28 MB 1073 689 3 days 2 days
[i] Jurassic World Fallen Kingdom 2018 NEW HD-TS XViD AC3 ETRG 1.35 GB 1065 832 3 days 2 days
[i] Sara's Notebook (2018) [BluRay] [720p] [YTS AM] 996.61 MB 772 332 3 days 2 days
[i] The Honey Killer (2018) [WEBRip] [720p] [YTS AM] 680.9 MB 676 167 3 days 2 days
[i] Tango One (2018) [BluRay] [1080p] [YTS AM] 1.81 GB 558 234 3 days 2 days
[i] Sara's Notebook (2018) [BluRay] [1080p] [YTS AM] 1.86 GB 530 191 3 days 2 days
[i] Jurassic World Fallen Kingdom 2018 720p HDTS x264 [MW] 1.1 GB 518 301 2 days 1 day
[i] Billionaire Boys Club 2018 HDRip XViD-ETRG 708.01 MB 509 348 4 days 3 days
[i] The Devil's Doorway (2018) [WEBRip] [720p] [YTS AM] 638.65 MB 507 171 3 days 21 hours
[i] The Honey Killer (2018) [WEBRip] [1080p] [YTS AM] 1.28 GB 470 130 3 days 2 days