Con Air (1997.BluRay.720p.x264.{Dual.Audio}.[Hindi Org-English].-.Hon3yHD

Posted on August 10, 2018 in Movies » Misc , verified torrent

Size: 1.2 GB , Seeds: 0 , Peers: 0 ( Updated August 10, 2018 - Refresh )

Could not find any peer statistics from any torrent tracker.
This does not mean the torrent is dead.

* Download via Magnet Link , * To download files you need a Bittorrent Client , * How to download torrents from Bit Torrent Scene?

Scrape History ( seeds + peers )

Internal Files

Con Air (1997.BluRay.720p.x264.{Dual.Audio}.[Hindi Org-English].-.Hon3yHD
Con Air   1997.BluRay.720p.x264.{Dual.Audio}.[Hindi Org-English].-.Hon3yHD.mkv (1.2 GB

Torrent Seed By www.cyber-planet.in.txt   0.1 KB

Hon3yHD.net.txt   0.1 KB

Hash Code

f7ed94e8f7c81ea72e554c335ae27a937257eb42

Description


SCREENSHOT

https://www.imdb.com/title/tt0118880/


Format : Matroska

Format version : Version 4 / Version 2

File size : 1.18 GiB

Duration : 1 h 55 min

Overall bit rate : 1 459 kb/s


Video

ID : 1

Format : AVC

Format/Info : Advanced Video Codec

Format profile : [email protected]
Format settings : CABAC / 8 Ref Frames

Format settings, CABAC : Yes

Format settings, ReFrames : 8 frames

Codec ID : V_MPEG4/ISO/AVC

Duration : 1 h 55 min

Bit rate : 1 200 kb/s

Width : 1 280 pixels

Height : 532 pixels

Display aspect ratio : 2.40:1

Original display aspect rat : 2.40:1

Frame rate mode : Constant

Frame rate : 23.976 (24000/1001) FPS


Audio #1

ID : 2

Format : AAC

Format/Info : Advanced Audio Codec

Format profile : LC

Codec ID : A_AAC-2

Duration : 1 h 55 min

Bit rate : 128 kb/s

Channel(s) : 2 channels

Channel positions : Front: L R

Sampling rate : 48.0 kHz

Frame rate : 46.875 FPS (1024 SPF)

Compression mode : Lossy

Delay relative to video : 179 ms

Stream size : 106 MiB (9%)

Title : Stereo

Language : Hindi


Audio #2

ID : 3

Format : AAC

Format/Info : Advanced Audio Codec

Format profile : LC

Codec ID : A_AAC-2

Duration : 1 h 55 min

Bit rate : 128 kb/s

Channel(s) : 2 channels

Channel positions : Front: L R

Sampling rate : 48.0 kHz

Frame rate : 46.875 FPS (1024 SPF)

Compression mode : Lossy

Delay relative to video : -21 ms

Stream size : 106 MiB (9%)

Title : Stereo

Language : English



Text

ID : 4

Format : ASS

Codec ID : S_TEXT/ASS

Codec ID/Info : Advanced Sub Station Alpha

Duration : 1 h 48 min

Bit rate : 94 b/s

Count of elements : 1192

Compression mode : Lossless

Stream size : 75.4 KiB (0%)

Language : English

Default : No

Forced : No


SCREENSHOT

SCREENSHOT SCREENSHOT SCREENSHOT SCREENSHOT

Torrent location

https://www.1337x.to/torrent/3167344/Con-Air-1997-BluRay-720p-x264-Dual-Audio-Hindi-Org-English-Hon3yHD/

Trackers

Refresh Leechers : Updated August 10, 2018

1. udp://9.rarbg.com:2710/announce

2. udp://tracker.opentrackr.org:1337/announce

3. udp://tracker.pirateparty.gr:6969/announce

4. udp://tracker.leechers-paradise.org:6969/announce

5. udp://tracker.coppersurfer.tk:6969/announce

6. udp://tracker.zer0day.to:1337/announce

Comments

You must log in to add a comment.

Embed Code

Sharing Widget

Related torrents

FILENAME SIZE SEEDS PEERS ADDED UPD
[i] Contact.1997.1080p.BluRay.x264.anoXmous 2.44 GB 92 9 5 years 1 year
[i] L A Confidential (1997) [BluRay] [1080p] [YTS AM] 2.2 GB 87 17 3 months 1 month
[i] Austin Powers 1-3 Trilogy 1997-2002 BluRay 720p x264 ac3 jbr k 4.96 GB 86 20 6 years 1 year
[i] Life Is Beautiful (1997) [BluRay] [720p] [YTS AM] 989.83 MB 81 16 3 months 1 week
[i] Life Is Beautiful (1997) [BluRay] [1080p] [YTS AM] 1.86 GB 78 13 3 months 1 week
[i] Event.Horizon.1997.1080p.BluRay.H264.AAC-RARBG 1.83 GB 67 6 3 years 1 year
[i] Children.Of.Heaven.1997.1080p.BluRay.x264.anoXmous 1.52 GB 48 1 4 years 4 months
[i] Funny.Games.1997.720p.BluRay.x264.anoXmous 1.01 GB 45 3 5 years 1 year
[i] Life Is Beautiful 1997 1080p BluRay x265 HEVC 10bit AAC 5.1-LordVako 2.42 GB 45 5 2 years 7 months
[i] Seven.Years.In.Tibet.1997.1080p.Bluray.x264.anoXmous 1.87 GB 39 4 6 years 2 days

Top Movies ( auto generated report )

FILENAME SIZE SEEDS PEERS ADDED UPD
[i] The Equalizer 2 2018 HDTS XViD AC3-ETRG 1.28 GB 1024 1019 1 day 22 hours
[i] The Meg 2018 HDCAM XViD AC3-ETRG 1.26 GB 806 669 4 days 3 days
[i] TAG 2018 BRRip XViD-ETRG 705.11 MB 690 375 4 days 3 days
[i] Skyscraper.2018.HC.HDRip.XviD.AC3-EVO 1.36 GB 603 204 5 days 2 days
[i] Skyscraper.2018.720p.HC.HDRip.X264.AC3-EVO 2.53 GB 456 207 5 days 4 days
[i] Love at Sea 2018 Hallmark 720p HDTV X264 Solar 1.08 GB 283 93 2 days 1 day
[i] Wind River - I segreti di Wind River (2017).720p.H264.italian.english.Ac3-5.1.sub.ita-MIRCrew 2.05 GB 263 138 2 days 1 day
[i] Skyscraper 2018 720p HC HDRip x264 Dual Audio [Hindi - English] [MW] 916.04 MB 478 1375 4 days 7 hours
[i] 2047 - Virtual Revolution 720p h264 ita eng sub ita fre-MIRCrew 1.8 GB 231 176 4 days 3 days
[i] Slenderman 2018 HDCAM XViD AC3-ETRG 1.17 GB 226 183 4 days 3 days