Avengers Infinity War 2018 New HDTC 720p Hindi x264 LLG

Posted by LifeLongg •1224 on June 14, 2018 in Movies » Action , verified torrent

Size: 1.02 GB , Seeds: 5 , Peers: 2 ( Updated July 18, 2018 - Refresh )

* Download via Magnet Link , * To download files you need a Bittorrent Client , * How to download torrents from Bit Torrent Scene?

Scrape History ( seeds + peers )

Internal Files

Avengers Infinity War 2018.New.HDTC.720p.Hindi.x264.LLG
Sample.mp4   6.97 MB
Avengers Infinity War 2018.New.HDTC.720p.Hindi.x264.LLG.mp4   1.02 GB

Hash Code

c3a68995eb34d6da0af904b386a0fb749a711b73

Description

******************************Thumbnail:**********************

SCREENSHOT

******************************Screenshots:********************

Screenshot 1

Screenshot 2

Screenshot 3

Screenshot 4

Screenshot 5

Screenshot 6

Screenshot 7

Screenshot 8

Screenshot 9

Screenshot 0

**************************************************************

Complete name : Avengers Infinity War 2018.New.HDTC.720p.Hindi.x264.LLG.mp4
Format : MPEG-4
Format profile : Base Media
Codec ID : isom (isom/iso2/avc1/mp41)
File size : 1.02 GiB
Duration : 1 h 53 min
Overall bit rate : 1 284 kb/s
Writing application : Lavf57.56.101

Video
ID : 1
Format : AVC
Format/Info : Advanced Video Codec
Format profile : High@L3.1
Format settings : CABAC / 4 Ref Frames
Format settings, CABAC : Yes
Format settings, RefFrames : 4 frames
Codec ID : avc1
Codec ID/Info : Advanced Video Coding
Duration : 1 h 53 min
Bit rate : 1 200 kb/s
Width : 1 280 pixels
Height : 536 pixels
Display aspect ratio : 2.40:1
Frame rate mode : Constant
Frame rate : 25.000 FPS
Color space : YUV
Chroma subsampling : 4:2:0
Bit depth : 8 bits
Scan type : Progressive
Bits/(Pixel*Frame) : 0.070
Stream size : 982 MiB (94%)

Audio
ID : 2
Format : AAC
Format/Info : Advanced Audio Codec
Format profile : LC
Codec ID : mp4a-40-2
Duration : 1 h 53 min
Bit rate mode : Constant
Bit rate : 64.4 kb/s
Channel(s) : 2 channels
Channel positions : Front: L R
Sampling rate : 48.0 kHz
Frame rate : 46.875 FPS (1024 SPF)
Compression mode : Lossy
Stream size : 52.2 MiB (5%)
Language : Hindi
Default : Yes
Alternate group : 1

Trackers

Refresh Leechers : Updated July 18, 2018

1. udp://tracker.openbittorrent.com:80/announce

2. udp://tracker.opentrackr.org:1337/announce

Comments

You must log in to add a comment.

Embed Code

Sharing Widget

Related torrents

FILENAME SIZE SEEDS PEERS ADDED UPD
[i] Avengers Infinity War 2018 NEW PROPER 720p HD-CAM X264 HQ-CPG 3.6 GB 1898 146 3 months 1 week
[i] Avengers Infinity War 2018 720p TS x264 AAC TiTAN 2.8 GB 1831 271 3 months 2 months
[i] Avengers Infinity War 2018 NEW 720p HD-TS X264-CPG 3.4 GB 1160 686 2 months 2 months
[i] Avengers Infinity War 2018 720p TS x264 AAC TiTAN 2.8 GB 478 85 3 months 1 month
[i] Avengers.Infinity.War.2018.Multi.UHD.Blu-ray.2160p.x265.Atmos.Tr 19.7 GB 265 280 1 week 1 day
[i] Avengers Infinity War 2018 HDTS XViD AC3-ETRG
posted by juggs in Movies - Action
1.44 GB 229 85 2 months 4 weeks
[i] Avengers Infinity War 2018 1080p BluRay x264 DTS [MW]
posted by moviefreak in Movies - Action
3.89 GB 176 39 1 week 1 week
[i] Avengers Infinity War 2018 720p BluRay x264-NeZu
posted by NeZu2k16 in Movies - Action
1.53 GB 173 73 1 week 6 days
[i] downloadhub in Avengers Infinity War (2018) 720p HDCAM x264 [Dual-Audio][Hindi( Cleaned) - English] - Downloadhub
posted by downloadhub in Movies - Action
1.23 GB 163 36 3 months 1 week
[i] Avengers Infinity War 2018 Early 720p HDCAM ENG x264-Mr.Hive 2.46 GB 160 23 3 months 1 week

Top Movies ( auto generated report )

FILENAME SIZE SEEDS PEERS ADDED UPD
[i] The Equalizer 2 2018 HDTS XViD AC3-ETRG 1.28 GB 847 406 3 days 20 hours
[i] Love at Sea 2018 Hallmark 720p HDTV X264 Solar 1.08 GB 283 93 3 days 2 days
[i] downloadhub in Sketch (2018) 720p UNCUT HDRip x264 [Dual-Audio][Hindi (Cleaned) - Tamil] ESubs - Downloadhub 1.15 GB 282 380 2 days 1 day
[i] Wind River - I segreti di Wind River (2017).720p.H264.italian.english.Ac3-5.1.sub.ita-MIRCrew 2.05 GB 263 138 3 days 2 days
[i] Slenderman 2018 HDCAM XViD AC3-ETRG 1.17 GB 226 183 5 days 4 days
[i] Contromano (2018).720p.H264.italian.Ac3-5.1.sub.NUita.eng-MIRCrew 1.6 GB 212 96 4 days 3 days
[i] Slender Man 2018 720p HDCAM x264 [MW] 1020.31 MB 206 86 3 days 2 days
[i] The Equalizer 2 2018 720p HD-TS x264-24HD 2.4 GB 155 110 2 days 8 hours
[i] The Meg 2018 720p HDTC x264 Dual Audio [Hindi - English] [MW] 1.04 GB 173 124 1 day 14 hours
[i] Garage Sale Mysteries (The Mask Murder) 2018 720p HDTV 992.4 MB 155 35 2 days 1 day