[180803][18禁アニメ][メリー・ジェーン] エルフの教え子と先生 上巻 秘密の放課後デート

Posted by MadHentaiJAV •1868 on August 2, 2018 in Anime » Hentai , verified torrent

Size: 154.98 MB , Seeds: 55 , Peers: 5 ( Updated August 8, 2018 - Refresh )

* Download via Magnet Link , * To download files you need a Bittorrent Client , * How to download torrents from Bit Torrent Scene?

Scrape History ( seeds + peers )

Internal Files

[180803][18禁アニメ][メリー・ジェーン] エルフの教え子と先生 上巻 秘密の放課後デート.mp4
[180803][18禁アニメ][メリー・ジェーン] エルフの教え子と先生 上巻 秘密の放課後デート.mp4   154.98 MB

Hash Code

01b11e4d678478d4400a81b3fd0e99d7d432baae

Description

Uploading by : #NyaaLover

https://www.pixsense.net/site/v/6966884#2346&6966884

https://www.pixsense.net/site/v/6966885#2346&6966885

https://www.pixsense.net/site/v/6966886#2346&6966886

Screenshots in One

https://www.pixsense.net/site/v/6966887#2346&6966887

SCREENSHOT

Video
ID : 1
Format : AVC
Format/Info : Advanced Video Codec
Format profile : High@L4.1
Format settings, CABAC : Yes
Format settings, ReFrames : 5 frames
Codec ID : avc1
Codec ID/Info : Advanced Video Coding
Duration : 16mn 57s
Bit rate : 1 020 Kbps
Maximum bit rate : 3 648 Kbps
Width : 720 pixels
Height : 480 pixels
Display aspect ratio : 16:9
Original display aspect rat : 16:9
Frame rate mode : Variable
Frame rate : 24.722 fps
Original frame rate : 29.970 fps
Minimum frame rate : 9.990 fps
Maximum frame rate : 119.880 fps
Color space : YUV
Chroma subsampling : 4:2:0
Bit depth : 8 bits
Scan type : Progressive
Bits/(Pixel*Frame) : 0.119
Stream size : 124 MiB (80%)
Writing library : x264 core 123 r2184+681M 5d72658
Encoding settings : cabac=1 / ref=5 / deblock=1:-2:-2 / analyse=0x3:0x113 / me=umh / subme=7 / psy=1 / fade_compensate=0.00 / psy_rd=1.00:0.00 / mixed_ref=1 / me_range=32 / chroma_me=1 / trellis=1 / 8x8dct=1 / cqm=0 / deadzone=21,11 / fast_pskip=1 / chroma_qp_offset=-2 / threads=7 / sliced_threads=1 / slices=7 / nr=0 / decimate=1 / interlaced=0 / bluray_compat=0 / constrained_intra=0 / fgo=0 / bframes=3 / b_pyramid=2 / b_adapt=2 / b_bias=0 / direct=3 / weightb=1 / open_gop=0 / weightp=2 / keyint=250 / keyint_min=25 / scenecut=40 / intra_refresh=0 / rc_lookahead=40 / rc=crf / mbtree=1 / crf=18.0000 / qcomp=0.60 / qpmin=0 / qpmax=69 / qpstep=4 / ip_ratio=1.40 / aq=1:1.00
Encoded date : UTC 2018-08-01 10:10:48
Tagged date : UTC 2018-08-01 10:10:50

Audio
ID : 2
Format : AAC
Format/Info : Advanced Audio Codec
Format profile : LC
Codec ID : 40
Duration : 16mn 57s
Bit rate mode : Variable
Bit rate : 253 Kbps
Maximum bit rate : 326 Kbps
Channel(s) : 2 channels
Channel positions : Front: L R
Sampling rate : 48.0 KHz
Compression mode : Lossy
Stream size : 30.7 MiB (20%)
Encoded date : UTC 2018-08-01 10:10:50
Tagged date : UTC 2018-08-01 10:10:50

Trackers

Refresh Leechers : Updated August 8, 2018

1. http://sukebei.tracker.wf:8888/announce

2. udp://open.stealth.si:80/announce

3. http://retracker.mgts.by/announce

4. http://retracker.telecom.by/announce

5. udp://tracker.pirateparty.gr:6969/announce

6. udp://eddie4.nl:6969/announce

7. udp://shadowshq.yi.org:6969/announce

8. udp://bt.firebit.co.uk:6969/announce

9. udp://tracker.internetwarriors.net:1337/announce

10. http://sukebei.tracker.wf:8888/announce

11. udp://tracker.coppersurfer.tk:6969/announce

12. http://anidex.moe:6969/announce

13. udp://tracker.coppersurfer.tk:80/announce

14. udp://bt.xxx-tracker.com:2710/announce

15. udp://open.stealth.si:80/announce

16. udp://tracker.opentrackr.org:1337/announce

17. udp://opentrackr.org:1337/announce

18. http://82.209.230.66/announce

Comments

You must log in to add a comment.

Embed Code

Sharing Widget